0 mom Dtone tushy 18.12 1080p.mp4-ktr XXX young sheldon S02E12 star trek discovery hindi ddr the good place 2160p bbc evo arrow español Future.Man Young Sheldon vikings you 2018 ita SUPERNATURAL big bang theory Lucifer porn a star is born outlander Future Man S02E01 1080p 2018 the walking dead Vikings S05E17 Evo 1080p YIFY ettv It bohemian rhapsody aquaman ita future man young justice Game Of Thrones Chicago PD bumblebee dtone titan games S01E02 gotham s05e02 tushyraw 1080p.mp4-ktr ethd etrg EtHD anal gotham ITA aquaman etmovies MODERN FAMILY man g orville uhd WWE brooklyn nine nine ita 2018 arrow The Orville the big bang theory the orville s02e03 Future Man S01 NCIS the big bang theory S12E12 bohemian rhapsody ita great british bake off s09e10 ETRG 1080P fgt star trek discovery español 
Warning! Do not Download Without a VPN!
Your IP Address is .   Location is
Download and surf securely, stream unlimited and protect your personal data!
We strongly recommend using SpyOFF VPN!
Become Anonymous with SpyOFF
ETTV Recommended TV Shows
Blindspot.S04E09.HDTV.x264-SVA[ettv] torrent
The.Blacklist.S06E03.HDTV.x264-KILLERS[ettv] torrent
MacGyver.2016.S03E12.HDTV.x264-SVA[ettv] torrent
Hawaii.Five-0.2010.S09E12.HDTV.x264-SVA[ettv] torrent

ETTV Recommended SD
Pledge.2019.HDRip.XViD-ETRG torrent
SGT.Will.Gardner.2019.HDRip.XviD.AC3-EVO torrent
The.Last.Laugh.2019.HDRip.XviD.AC3-EVO torrent
First Man 2018 DVDRip XViD AC3-ETRG torrent

ETTV Recommended HD
Solis 2018 1080p GER Blu-ray HEVC DTS-HD MA 5 1-DTOne torrent
Speed Kills 2018 1080p Blu-ray HEVC DTS-HD MA 5 1-DTOne torrent
The Old Man And The Gun 2018.Multi.Bluray.1080p.x265.DTS-HDMA.5.1-DTOne torrent
Ashes.in.the.Snow.2018.1080p.WEB-DL.DD5.1.H264-CMRG[EtHD] torrent

ETTV Recommended UHD
Serenity.2005.Multi.UHD.2160p.Bluray.x265.HDR.DTS-HDMA.7.1.[En+Hi]-DTOne torrent
The.Hitmans.Bodyguard.2017.Multi.2160p.UHD.BluRay.x265.HDR.Atmos.7.1.[En+Hi]-DTOne torrent
How To Train Your Dragon 2010.Multi.2160p.UHD.Bluray.x265.DTS-X.7.1.[En+Hi+]-DTOne torrent
How To Train Your Dragon - 2 2014.Multi.2160p.UHD.Bluray.x265.DTS-X.7.1.[En+Desi+]-DTOne torrent

ETTV Recommended Cam
Bumblebee 2018 NEW HDTS x264 AC3-ETRG torrent
Aquaman.2018.BLURRED.HDTC.x264.AC3-ETRG torrent
Once Upon a Deadpool 2018 NEW 720p HDCAM-1XBET torrent
Holmes.&.Watson.HDCAM.XViD.AC3-ETRG torrent

ETTV Recommended Foreign
Padmaavat 2018.GER.Blu-Ray.1080p.HEVC.TrueHD.7.1-DTOne torrent
Tera Intezaar.2017.1080p.AMZN.WeB.DL.H264.DDP.5.1.DTOne torrent
Pihu.2018.720p.WeB.DL.H264.AAC.2.0.DTOne torrent
Sui Dhaaga - Made in India.2018.1080p.AMZN.WeB.DL.H264.DDP.5.1.DTOne torrent


Download Torrent "Star Trek Discovery S00E05 Short Treks (1080p AMZN WEB-DL x265 HEVC 10bit A..."

IMDB Details
Description:

N/A

Genre:

N/A

Download Torrent (Magnet)
Download Torrent (File)
Seeds: 278
Leechers: 147
Completed: 533 
Last Checked: 12-01-2019 02:52:39


Loading...
Details
Title:Star Trek Discovery S00E05 Short Treks (1080p AMZN WEB-DL x265 HEVC 10bit A...
Description:
[CENTER]







Media Information

[B]Media Information[/B][B]General[/B]
Format                                   : Matroska
Format version                           : Version 4 / Version 2
File size                                : 163 MiB
Duration                                 : 16 min 5 s
Overall bit rate                         : 1 416 kb/s
Movie name                               : Star Trek Discovery S00E05 Short Treks The Escape Artist  (1080p x265 10bit Joy)
Encoded date                             : UTC 2019-01-11 19:02:46
Writing application                      : mkvmerge v29.0.0 ('Like It Or Not') 64-bit
Writing library                          : libebml v1.3.6 + libmatroska v1.4.9
Writing frontend                         : StaxRip v1.8.2.0, a JoyBell Encode

[B]Video[/B]
ID                                       : 1
Format                                   : HEVC
Format/Info                              : High Efficiency Video Coding
Format profile                           : Main [email protected]@Main
Codec ID                                 : V_MPEGH/ISO/HEVC
Duration                                 : 16 min 5 s
Bit rate                                 : 1 191 kb/s
Width                                    : 1 920 pixels
Height                                   : 800 pixels
Display aspect ratio                     : 2.40:1
Frame rate mode                          : Variable
Frame rate                               : 24.000 FPS
Original frame rate                      : 24.083 FPS
Color space                              : YUV
Chroma subsampling                       : 4:2:0
Bit depth                                : 10 bits
Bits/(Pixel*Frame)                       : 0.032
Stream size                              : 137 MiB (84%)
Writing library                          : x265 2.9+15-81373aab81df:[Windows][MSVC 1916][64 bit] 10bit
Encoding settings                        : cpuid=1111039 / frame-threads=3 / numa-pools=8 / wpp / no-pmode / no-pme / no-psnr / ssim / log-level=2 / input-csp=1 / input-res=1920x800 / interlace=0 / total-frames=23166 / level-idc=0 / high-tier=1 / uhd-bd=0 / ref=4 / no-allow-non-conformance / no-repeat-headers / annexb / no-aud / no-hrd / info / hash=0 / no-temporal-layers / open-gop / min-keyint=24 / keyint=250 / gop-lookahead=0 / bframes=4 / b-adapt=2 / b-pyramid / bframe-bias=0 / rc-lookahead=80 / lookahead-slices=4 / scenecut=40 / radl=0 / no-splice / no-intra-refresh / ctu=64 / min-cu-size=8 / no-rect / no-amp / max-tu-size=32 / tu-inter-depth=1 / tu-intra-depth=1 / limit-tu=0 / rdoq-level=2 / dynamic-rd=0.00 / ssim-rd / signhide / no-tskip / nr-intra=0 / nr-inter=0 / no-constrained-intra / strong-intra-smoothing / max-merge=3 / limit-refs=3 / limit-modes / me=3 / subme=3 / merange=57 / temporal-mvp / weightp / no-weightb / no-analyze-src-pics / deblock=0:0 / sao / no-sao-non-deblock / rd=4 / no-early-skip / rskip / no-fast-intra / no-tskip-fast / no-cu-lossless / no-b-intra / no-splitrd-skip / rdpenalty=0 / psy-rd=0.00 / psy-rdoq=1.50 / no-rd-refine / no-lossless / cbqpoffs=0 / crqpoffs=0 / rc=abr / bitrate=1200 / qcomp=0.60 / qpstep=4 / stats-write=0 / stats-read=2 / cplxblur=20.0 / qblur=0.5 / vbv-maxrate=2400 / vbv-bufsize=6400 / vbv-init=0.9 / ipratio=1.40 / pbratio=1.30 / aq-mode=3 / aq-strength=0.80 / cutree / zone-count=0 / no-strict-cbr / qg-size=32 / no-rc-grain / qpmax=69 / qpmin=0 / no-const-vbv / sar=0 / overscan=0 / videoformat=5 / range=0 / colorprim=2 / transfer=2 / colormatrix=2 / chromaloc=0 / display-window=0 / max-cll=0,0 / min-luma=0 / max-luma=1023 / log2-max-poc-lsb=8 / vui-timing-info / vui-hrd-info / slices=1 / no-opt-qp-pps / no-opt-ref-list-length-pps / multi-pass-opt-rps / scenecut-bias=0.05 / no-opt-cu-delta-qp / no-aq-motion / no-hdr / no-hdr-opt / no-dhdr10-opt / no-idr-recovery-sei / analysis-reuse-level=10 / scale-factor=0 / refine-intra=0 / refine-inter=0 / refine-mv=0 / limit-sao / ctu-info=0 / no-lowpass-dct / refine-mv-type=0 / copy-pic=1 / max-ausize-factor=1.0 / no-dynamic-refine / no-single-sei
Default                                  : Yes
Forced                                   : No

[B]Audio[/B]
ID                                       : 2
Format                                   : AAC
Format/Info                              : Advanced Audio Codec
Format profile                           : HE-AAC / LC
Codec ID                                 : A_AAC
Duration                                 : 16 min 5 s
Bit rate                                 : 222 kb/s
Channel(s)                               : 6 channels
Channel positions                        : Front: L C R, Side: L R, LFE
Sampling rate                            : 48.0 kHz / 24.0 kHz
Frame rate                               : 23.438 FPS (1024 spf)
Compression mode                         : Lossy
Delay relative to video                  : 31 ms
Stream size                              : 25.6 MiB (16%)
Language                                 : English
Default                                  : No
Forced                                   : No

[B]Subtitle #1[/B]
ID                                       : 3
Format                                   : UTF-8
Codec ID                                 : S_TEXT/UTF8
Codec ID/Info                            : UTF-8 Plain Text
Duration                                 : 13 min 42 s
Bit rate                                 : 91 b/s
Count of elements                        : 297
Stream size                              : 9.20 KiB (0%)
Language                                 : English
Default                                  : No
Forced                                   : No

[B]Subtitle #2[/B]
ID                                       : 4
Format                                   : UTF-8
Codec ID                                 : S_TEXT/UTF8
Codec ID/Info                            : UTF-8 Plain Text
Duration                                 : 13 min 42 s
Bit rate                                 : 101 b/s
Count of elements                        : 330
Stream size                              : 10.1 KiB (0%)
Language                                 : English
Default                                  : No
Forced                                   : No

[/CODE]

[B]Source Information[/B]Release:
Star.Trek.Discovery.S00E05.Short.Treks.The.Escape.Artist.1080p.AMZN.WEB-DL.DD+5.1.H.264-AJP69.mkv (1.21 GBs)

[/CENTER]

Category:TV > HEVC/x265
Lang:English  English
Total Size:163 MB
Info Hash:aa3ea8cc3386bf330b88c0f8d182e59b2cea8d5e
Added By:UTR
Date Added:12-01-2019 02:52:35

Files

File List: 
 File Size
Star Trek Discovery S00E05 Short Treks The Escape Artist (1080p x265 10bit FS86 Joy).mkv163 MB



Loading...
Comments

There are currently no comments. Be the first one to write something !

Disclaimer: None of the files shown here are actually hosted or transmitted by this server. The links are provided solely by this site's users. The site moderation is also a service provided by the site's users. The administrator of this site (ettv.tv) cannot be held responsible for what its users post, or any other actions of its users. You may not use this site to distribute or download any material when you do not have the legal rights to do so. It is your own responsibility to adhere to these terms.

Sitemap