Shameless south park wwe ddr The Flash etrg DTONE arrow modern Family legends of tomorrow chicago med s04e05 supergirl Vikings american horror story photoshop klazz brothers Scorpion big bang theory it 2017 2160p ncis dtone Chicago Fire arrow español venom fgt 2018 ita The young Astrid ethd lucifer NFL EVO ita big bang theory español hindi game of thrones it star trek discovery español lethal weapon Survivor Flash 0 season Modern Family S10E05 The Good Doctor mr robot en español chicago med 9-1-1 s02e04 Mayans Seal Team mile 22 porn star trek discovery doctor who the walking dead s09e03 Greys anatomy the walking dead chicago pd ettv the big bang theory Supernatural etmovies season complete High Castle s03e07 daredevil cbr 1080p YIFY American Horror Story S08E07 evo incredibles 2 great british bake off s09e09 
Warning! Do not Download Without a VPN!
Your IP Address is .   Location is
Download and surf securely, stream unlimited and protect your personal data!
We strongly recommend using SpyOFF VPN!
Become Anonymous with SpyOFF
ETTV Recommended TV Shows
S.W.A.T.2017.S02E05.HDTV.x264-KILLERS[ettv] torrent
Supernatural.S14E03.HDTV.x264-SVA[ettv] torrent
Legacies.S01E01.HDTV.x264-SVA[ettv] torrent
Law.and.Order.SVU.S20E06.HDTV.x264-KILLERS[ettv] torrent

ETTV Recommended Xvid
The.Witch.in.the.Window.2018.HDRip.XViD-ETRG torrent
Christopher.Robin.2018.DVDRip.XviD.AC3-EVO torrent
Hide and Go Seek.2018.HDRip.XviD.AC3-EVO[EtMovies] torrent
Alpha.2018.HDRip.XviD.AC3-EVO[EtMovies] torrent

ETTV Recommended HD
Alpha.2018.1080p.WEB-DL.DD5.1.H264-CMRG[EtHD] torrent
I.Think.We're.Alone.Now.2018.1080p.Bluray.x264.Atmos.7.1-DTOne torrent
Patient Zero.2018.Multi.1080p.Bluray.x264.DTS-HDMA.5.1-DTOne torrent
Sorry.to.Bother.You.2018.1080p.Bluray.x264.DTS-HDMA.5.1-DTOne torrent

ETTV Recommended UHD
Peter.Rabbit.2018.PLDUB.DUAL.2160p.UHD.BluRay.x265-FLAME[EtHD] torrent
Death.Wish.2018 BluRay 2160p DTS MA5 1 x265 10bit-CHD[EtHD] torrent
Mamma.Mia.Here.We.Go.Again.2018UHD.2160p.Bluray.Remux.HEVC.HDR.Atmos.7.1-DTOne torrent
Only.The.Brave.2017.UHD.2160p.Bluray.Remux.HEVC.HDR.Atmos.7.1-DTOne torrent

ETTV Recommended Cam
Goosebumps 2 Haunted Halloween 2018 HDTS.x264.AC3-ETRG torrent
Halloween 2018.HDCAM.XViD.AC3-ETRG torrent
Night School 2018 HDTS XViD AC3-ETRG torrent
King of Thieves 2018 720p TS-1XBET torrent

ETTV Recommended Foreign
Chotay Shah 2016 Hindi Untouched WebDL 1080p x264 - mkvCinemas torrent
Illang-The.Wolf.Brigade.2018.Multi.1080p.x264.NF.WebDL.DD5.1-DTOne torrent
Drishtikone 2018 WebRip Bengali 720p x264 AAC - mkvCinemas torrent
Spider Man Collection (2002 - 2017) 1080p BluRay x264 Hindi - English DD5.1Ch - Msubs ~ Ranvijay torrent

Social


Download Torrent "The Walking Dead S09E03 (1080p WEBRip x265 HEVC 10bit AAC 5.1 Joy) [UTR]"

IMDB Details
Description:

N/A

Genre:

N/A

Download Torrent (Magnet)
Download Torrent (File)
Seeds: 686
Leechers: 75
Completed: 7,767 
Last Checked: 24-10-2018 13:23:08


Loading...
Details
Title:The Walking Dead S09E03 (1080p WEBRip x265 HEVC 10bit AAC 5.1 Joy) [UTR]
Description:



Media Information
General
Format                                   : Matroska
Format version                           : Version 4 / Version 2
File size                                : 468 MiB
Duration                                 : 45 min 50 s
Overall bit rate                         : 1 427 kb/s
Movie name                               : The Walking Dead 09x03 (Warning Signs) - release by messafan for CasStudio
Encoded date                             : UTC 2018-10-23 00:45:20
Writing application                      : mkvmerge v24.0.0 ('Beyond The Pale') 64-bit
Writing library                          : libebml v1.3.6 + libmatroska v1.4.9
Writing frontend                         : StaxRip v1.8.2.0

Video
ID                                       : 1
Format                                   : HEVC
Format/Info                              : High Efficiency Video Coding
Format profile                           : Main [email protected]@Main
Codec ID                                 : V_MPEGH/ISO/HEVC
Duration                                 : 45 min 50 s
Bit rate                                 : 1 198 kb/s
Width                                    : 1 920 pixels
Height                                   : 1 080 pixels
Display aspect ratio                     : 16:9
Frame rate mode                          : Constant
Frame rate                               : 23.976 (24000/1001) FPS
Color space                              : YUV
Chroma subsampling                       : 4:2:0
Bit depth                                : 10 bits
Bits/(Pixel*Frame)                       : 0.024
Stream size                              : 393 MiB (84%)
Writing library                          : x265 2.8+19-bcdc610cf5f0:[Windows][MSVC 1914][64 bit] 10bit
Encoding settings                        : cpuid=1111039 / frame-threads=3 / numa-pools=8 / wpp / no-pmode / no-pme / no-psnr / ssim / log-level=2 / input-csp=1 / input-res=1920x1080 / interlace=0 / total-frames=65936 / level-idc=0 / high-tier=1 / uhd-bd=0 / ref=4 / no-allow-non-conformance / no-repeat-headers / annexb / no-aud / no-hrd / info / hash=0 / no-temporal-layers / open-gop / min-keyint=23 / keyint=250 / gop-lookahead=0 / bframes=4 / b-adapt=2 / b-pyramid / bframe-bias=0 / rc-lookahead=80 / lookahead-slices=4 / scenecut=40 / radl=0 / no-intra-refresh / ctu=64 / min-cu-size=8 / no-rect / no-amp / max-tu-size=32 / tu-inter-depth=1 / tu-intra-depth=1 / limit-tu=0 / rdoq-level=2 / dynamic-rd=0.00 / ssim-rd / signhide / no-tskip / nr-intra=0 / nr-inter=0 / no-constrained-intra / strong-intra-smoothing / max-merge=3 / limit-refs=3 / limit-modes / me=3 / subme=3 / merange=57 / temporal-mvp / weightp / no-weightb / no-analyze-src-pics / deblock=2:2 / sao / no-sao-non-deblock / rd=4 / no-early-skip / rskip / no-fast-intra / no-tskip-fast / no-cu-lossless / no-b-intra / no-splitrd-skip / rdpenalty=0 / psy-rd=0.00 / psy-rdoq=1.00 / no-rd-refine / no-lossless / cbqpoffs=0 / crqpoffs=0 / rc=abr / bitrate=1200 / qcomp=0.60 / qpstep=4 / stats-write=0 / stats-read=2 / cplxblur=20.0 / qblur=0.5 / vbv-maxrate=2400 / vbv-bufsize=7200 / vbv-init=0.9 / ipratio=1.40 / pbratio=1.30 / aq-mode=2 / aq-strength=0.80 / cutree / zone-count=0 / no-strict-cbr / qg-size=32 / no-rc-grain / qpmax=69 / qpmin=0 / no-const-vbv / sar=0 / overscan=0 / videoformat=5 / range=0 / colorprim=2 / transfer=2 / colormatrix=2 / chromaloc=0 / display-window=0 / max-cll=0,0 / min-luma=0 / max-luma=1023 / log2-max-poc-lsb=8 / vui-timing-info / vui-hrd-info / slices=1 / no-opt-qp-pps / no-opt-ref-list-length-pps / multi-pass-opt-rps / scenecut-bias=0.05 / no-opt-cu-delta-qp / no-aq-motion / no-hdr / no-hdr-opt / no-dhdr10-opt / no-idr-recovery-sei / analysis-reuse-level=10 / scale-factor=0 / refine-intra=0 / refine-inter=0 / refine-mv=0 / limit-sao / ctu-info=0 / no-lowpass-dct / refine-mv-type=0 / copy-pic=1 / max-ausize-factor=1.0 / no-dynamic-refine / no-single-sei
Default                                  : Yes
Forced                                   : No

Audio
ID                                       : 2
Format                                   : AAC
Format/Info                              : Advanced Audio Codec
Format profile                           : HE-AAC / LC
Codec ID                                 : A_AAC
Duration                                 : 45 min 50 s
Bit rate                                 : 227 kb/s
Channel(s)                               : 6 channels
Channel positions                        : Front: L C R, Side: L R, LFE
Sampling rate                            : 48.0 kHz / 24.0 kHz
Frame rate                               : 23.438 FPS (1024 spf)
Compression mode                         : Lossy
Delay relative to video                  : 31 ms
Stream size                              : 74.3 MiB (16%)
Language                                 : English
Default                                  : No
Forced                                   : No

Subtitle #1
ID                                       : 3
Format                                   : UTF-8
Codec ID                                 : S_TEXT/UTF8
Codec ID/Info                            : UTF-8 Plain Text
Duration                                 : 43 min 55 s
Bit rate                                 : 43 b/s
Count of elements                        : 651
Stream size                              : 14.1 KiB (0%)
Language                                 : English
Default                                  : No
Forced                                   : No

Subtitle #2
ID                                       : 4
Format                                   : UTF-8
Codec ID                                 : S_TEXT/UTF8
Codec ID/Info                            : UTF-8 Plain Text
Duration                                 : 44 min 50 s
Bit rate                                 : 47 b/s
Count of elements                        : 730
Stream size                              : 15.6 KiB (0%)
Language                                 : English
Default                                  : No
Forced                                   : No

Source Information
Release: The.Walking.Dead.S09E03.Warning.Signs.1080p.AMZN.WEB-DL.DD+5.1.H.264-CasStudio.mkv (4.55 GBs)


UTR wrote:

Note From UTR
We have no issue with individuals posting or re-uploading our torrents on a platform we aren't on. However, if this is something you'd like to do, please do so in a 'as-is' format. We ask that you do not create a new torrent, include all descriptions you see above including the UTR logo, tags, notes and screenshots. If you'd like to become a permanent poster on a website we don't post to, feel free to get in contact with a UniTeam member.

If possible please donate: BTC 1QA5fum5AyXvWzdVCkQzUNvw3Ef15fHRaR


Category:TV > HEVC/x265
Lang:English  English
Total Size:468 MB
Info Hash:3015f7568ca6eab7c05b598fc567e8ed55c542fa
Added By:UTR
Date Added:24-10-2018 13:23:04

Files

File List: 
 File Size
The Walking Dead S09E03 Warning Signs (1080p x265 10bit FS78 Joy).mkv468 MB



Loading...
Comments

There are currently no comments. Be the first one to write something !

Disclaimer: None of the files shown here are actually hosted or transmitted by this server. The links are provided solely by this site's users. The site moderation is also a service provided by the site's users. The administrator of this site (ettv.tv) cannot be held responsible for what its users post, or any other actions of its users. You may not use this site to distribute or download any material when you do not have the legal rights to do so. It is your own responsibility to adhere to these terms.

Sitemap